#TITLE:.XmdC.underground;
#SUBTITLE:~AMR original~;
#ARTIST:Sonata Andina;
#TITLETRANSLIT:;
#SUBTITLETRANSLIT:;
#ARTISTTRANSLIT:;
#CREDIT:;
#BANNER:XMDC Underground.png;
#BACKGROUND:XMDC Underground-bg.png;
#LYRICSPATH:;
#CDTITLE:AMR.png;
#MUSIC:XMDCunderground.mp3;
#OFFSET:-1.209;
#SAMPLESTART:41.696;
#SAMPLELENGTH:12.000;
#SELECTABLE:YES;
#BPMS:0.000=139.998;
#STOPS:;
#BGCHANGES:;
// cache tags:
#FIRSTBEAT:16.000;
#LASTBEAT:258.000;
#SONGFILENAME:Songs/Chilean Keyboard Megapack 3/(AMR) XMDC underground/XMDC underground.sm;
#HASMUSIC:1;
#HASBANNER:1;
#MUSICLENGTH:115.200;
// end cache tags

//---------------dance-single - ----------------
#NOTES:
     dance-single:
     :
     Challenge:
     10:
     0.543,0.644,0.156,0.139,0.278,404.000,18.000,16.000,0.000,0.000:
0000
0000
0000
0000
,
0000
0000
0000
0000
,
0000
0000
0000
0000
,
0000
0000
0000
0000
,
1000
1000
0100
0000
0010
0000
0001
0000
,
0100
0100
0010
0000
1000
0000
0100
0000
,
0001
0001
0100
0000
1000
0000
0010
0000
,
0100
0100
1000
0000
0100
0000
0001
0000
,
0010
0010
1000
0000
0010
0000
0001
0000
,
0100
0100
0010
0000
1000
0000
0100
0000
,
0010
0010
0100
0000
1000
0000
0010
0000
,
1000
1000
0001
0000
0100
0000
0010
0000
,
0100
0100
0001
0000
0010
0000
0100
0000
,
0010
0000
0000
1000
0001
0000
0000
0000
0100
0000
0000
0010
0001
0000
0000
0000
,
0100
0000
0000
0010
1000
0000
0000
0000
0100
0000
0000
0010
0100
0000
0000
0000
,
1000
0000
0000
0001
0100
0000
0000
0000
0200
0000
0000
0000
0000
0000
0300
0000
,
1010
0100
0011
0100
,
1100
0001
0101
1000
,
1010
0001
0110
1000
,
0110
1000
1001
0100
,
1001
0010
1001
0100
,
1100
0001
0101
1000
,
1010
0001
0011
0100
,
1010
0000
0100
0000
0011
0000
0200
0300
,
2000
0000
3000
0000
0000
0000
0100
0000
0002
0000
0000
0103
0000
0000
0100
0000
,
0020
0000
0000
0130
0000
0000
1000
0000
0020
0000
0000
0130
0000
0000
0001
0000
,
0020
0000
0000
0130
0000
0000
1000
0000
0001
0000
0000
0100
0000
0000
0010
0000
,
0200
0000
0000
0301
0000
0000
0010
0000
0002
0000
0000
0013
0000
0000
0100
0000
,
2000
0000
0000
3100
0000
0000
0010
0000
0002
0000
0000
0103
0000
0000
0100
0000
,
0020
0000
0000
1030
0000
0000
0100
0000
0020
0000
0000
0031
0000
0000
0010
0000
,
1000
1000
1000
1000
,
0001
0001
0001
0001
,
1001
0100
1000
0010
1000
0100
1000
0010
,
0100
0001
0010
0001
0100
0001
0010
0001
,
0100
0010
0100
0001
0100
0010
0100
0001
,
1000
0100
0010
0100
1000
0100
1000
0100
,
0010
0001
0100
0010
1000
0001
0010
0001
,
0100
0010
0001
0100
0010
1000
0100
0001
,
0010
0100
1000
0100
0001
0100
1000
0010
,
0001
1000
0100
0001
0010
0100
1000
0100
,
0010
0000
0001
0000
0100
0000
0010
0000
1000
0100
1000
0000
0100
0000
0010
0000
,
0001
0100
0001
0000
1000
0000
0001
0000
1000
0010
1000
0000
0100
0000
0010
0000
,
0010
0001
0010
0000
0100
0000
1000
0000
0010
0100
0001
0000
1000
0000
0001
0000
,
0010
0100
1000
0000
0001
0000
0100
0000
0010
0100
0001
0000
0010
0000
0100
0000
,
1000
0100
0010
0000
0001
0000
0100
0000
0010
1000
0100
0000
0010
0000
0100
0000
,
1000
0100
0010
0001
0100
0000
0000
0000
0010
0100
0000
0100
0001
0000
0000
0000
,
0001
0010
0000
0010
0100
0000
0000
0000
1000
0010
0000
0010
0100
0000
0000
0000
,
0001
0100
0000
0100
0001
0000
0000
0000
1000
0100
0000
0100
1000
0000
0020
0000
,
1030
0100
0000
0001
0100
0000
0000
0000
1000
0010
0000
0100
0001
0000
0000
0000
,
0001
0100
0000
0010
1000
0000
0000
0000
0100
0010
0000
0001
0100
0000
0000
0000
,
0010
0100
0000
0100
0001
0000
0000
0000
1000
0100
0000
0010
0100
0000
0000
0000
,
1000
0000
0000
0100
0001
0000
0000
0000
0001
0000
0000
0100
1000
0000
0000
0000
,
0010
0000
0000
0100
0001
0000
0000
0000
0100
0000
0000
0010
1000
0000
0000
0000
,
0100
0000
0000
0010
0100
0000
0000
0000
0010
0000
0000
0100
0001
0000
1000
0100
,
1000
0000
0000
0100
0010
0000
0010
0001
0010
0000
0000
0001
0100
0000
0100
0010
,
0100
0000
0001
0100
0001
0000
1000
0001
1000
0000
0100
0010
0100
0000
0010
0001
,
0100
0010
0100
0001
0010
0100
1000
0100
,
0010
0001
0100
0010
1000
0010
0100
0001
,
0010
1000
0010
0001
0100
1000
0100
0001
,
0010
0100
1000
0100
0010
0100
1000
0010
,
0100
0001
0010
0100
0001
0100
0010
0100
,
1000
0010
0100
0001
0100
1000
0100
0001
,
0010
0100
1000
0100
0001
1000
0010
0001
,
0100
0010
1000
0100
0010
0100
2002
0000
,
0000
0000
3003
0000
;
